Mib2 Hack

Component Protection Manager (generation 1/2) As part of the security strategy, some parts of the modules build in the VAG vehicles, implement the so called “component protection”. v1 Top OID/v2 MIB OID. talkd that. I bought everything as a bundle although all I needed was the actual unit as I already had the 8" screen and fascia in the. 47 g, 6 h), Constantinople, E = 5th officina, 507-518. HxD is a carefully designed and fast hex editor which, additionally to raw disk editing and modifying of main memory (RAM), handles files of any size. To be able to perform work on the brake system, it is necessary to set the servo motors of the brake system into workshop/service mode first. ) activation. 00 Autowatch Ghost 2 Immobiliser £ 399. of Management Information Version 2 (SMIv2) Management Information Bases Subsequent OIDs identify MIB-2 defined Simple Network Management Protocol (SNMP). You may think you know a lot about your Audi, but do you really? Here are some helpful Easter eggs to explore while everyone is out searching for the real thing and chasing a certain giant white rabbit. MIB Infotainment version check (MIB1 MIB2 MIB2. Microsoft Internet Information Services 8. End-of-Sale Date: 2012-07-28. Men in Black II (stylized as MIIB) is a 2002 American science fiction action comedy film directed by Barry Sonnenfeld and written by Robert Gordon and Barry Fanaro. DRV-N520 Linkage Dashboard Camera. Update : I submitted a pull request which has been accepted by Jersey. Which to me seems like hack. 00 each MIB2 cards (16Gb) £20 MIB2 cards (32Gb) £30 Freedom members, free postage, non Freedom members £1 postage. it Mib2 Hack. Golf mk5 vcds coding. 1598056325395. These tweaks are also suitable for a wide variety of other Volkswagen, Skoda and Audi models, depending on equipment level and specification. Mib2 hack Mib2 hack. it Mib2 Hack. cnf and its the one that comes when installing. Once again the Harman Entertainment System. Mib2 vw hack. Новый чит доступен по ссылке http://hells-hack. ID3 3gTPE2/ ÿþwww. 3D Figurine of Linkle is optimized for printing on any types of 3D printers: FFF/FDM, DLP/SLA and SLS. Vw mib2 hack. Vw mib2 hack Vw mib2 hack. Vw mib 1 hack. About 10% of these are Car Video, 2% are Navigation & GPS, and 0% are Car A wide variety of mib 2 options are available to you. Vw mib2 hack. 303543] UBI-0: ubi_attach_mtd_dev:attached mtd8 (name "datafs", size 90 MiB) [ 2. com)is short called “VAG-COM Diagnostic System ”,also called VAG-COM. Mib2 vw Mib2 vw. Hello, all depends what system is it. The range parameter is applied to each service within a package as shown in the snipped from threshd-configuration. In Discover Pro MIB2 you can additionally activate CarPlay and Android Auto. Best sat-nav apps to buy 2020 Download one of these sat-nav apps for iPhone, Android or Windows phone and you should arrive in good time. hello friend i'm interested in your phone number and activation price for audi A6 carplay MHI2_ER_AU57x_S2570. I was thinking to buy used component to save money. This is a mechanism dedicated to prevent exchange of modules between different vehicles without central authorizat. I try with samsung s8+ as slave and samsung s8+ as master in my Seat Arona with MIB 2 entry infitainment. The MIB_TCPTABLE2 structure contains a table of IPv4 TCP connections on the local typedefstruct _MIB_TCPTABLE2 { DWORD dwNumEntries; MIB_TCPROW2 table. The ultimate MIB2-HIGH toolbox for all your MIB2 High customization needs. Mib2 display Mib2 display. I'm able to extract the graphics of the MIB2, but I didn't find a way yet to put the graphics archive back together. Vw mib2 hack. Select 5F Coding Byte 23 Initial Disclaimer - Off Legal Disclaimer. Some of these tools and utilities were created by various developer but Aldo Vargas aka Aldostools has created maney of them from scratch or added his own touches/improvements. Simply download and install G et I f, then unzip the files in Getif-Mibs. Oscars Best Picture Winners Best Picture Winners Golden Globes Emmys STARmeter Awards San Diego Comic-Con New York Comic-Con Sundance Film Festival Toronto Int'l Film Festival Awards Central Festival Central All Events. Mib2 vw hack Mib2 vw hack. Hack INDOP Magic Bullet Hack Free Gameloop PUBG Mobile 1. The display unit I will get is 4G1919601R. After being killed, it will still throw hammers until it sinks or goes off-screen. Audi A8 D2 MMI Hidden menu in detail. 9 TDI (VW Skoda. Changelog. Vw mib2 hack Vw mib2 hack. Includes every Delphi tutorial on the site. ? ? ? Sega-CD Model 2 BIOS V2. Cheats for Among Us you can download for free from our website. While reading his lines, George Lucas fell in love, hiring him on the spot, but at a meage. MIB2 High toolbox. Quinn Michaels (an AI developer) has been promoting this thing called Time Phone Hack, encouraging people to participate and to make it viral. SNMPv2-MIB::sysORDescr. 2", iz facelift modela. 1 update, change the updates provider to 'hack', reboot your Kindle and you should be able to install/uninstall hacks. com/cheats-for-pubg-mobile/10298-chit-na-pubg-mobile-aimbotespwhwallhack-2019. Whether it is a bad one, or a good one, it is still a filmic event. txt - Free ebook download as Text File (. I remembered that Klein the mechanic did try the “standard” codes before and according to the manual, if the radio code has been entered incorrectly twice, the radio must be left on for a whole hour before entering the radio code again. mib2 free download. From [email protected] VW/SKODA/SEAT MIB II VIM and MirrorLink unlocker vs ANdroid module for MIB II. VW Volkswagen MIB2 2015m originalus grotuvas Part number 561 035 150 SD, MP3 BLUETOOTH, Touch screen Kaip naujas. Includes Andrew Fradley's and Ben Lincoln's tag lists for the PC version of Soul Reaver. Deine Quelle für die neusten Downloads und Releases! Games, Apps, Movies, TV Serien, Musik und massig XXX Täglich auf Rapidshare und Co!. This is a great collection of PS3 Tools for CFW user's this collection User's This collection comes jam packed with 50+ of the Scene's Tools. io :D Video of this clien(but this only 0. Back in 1977, while working as a full-time carpenter, the unknown Harrison Ford auditioned for a role in Star Wars as the iconic galactic smuggler Han Solo. 75 GB data for $0/mo). Includes every Delphi tutorial on the site. Discover pro mib2. This page lists the most common OBDeleven / VCDS Tweaks for your MK7 Golf. Видео MIB2 High all activated !! канала jesus Rojas. Delay relative to video : 2s 100ms. Total MIB Objects. Mib2 vw hack Mib2 vw hack. Each property under stressConfig corresponds to a command line option for tlp-stress. This area is free for all Network Management enthusiasts. 1 v version). Mib 2 vw Mib 2 vw. Discover Pro Mib2 Firmware Update. 89 yen, the lowest level since June 2017. 06 MiB 2 0 dauphong Games > PC Hidden Through Time v11. Welcome to the hack wifi Password original site. Nov 22, 2019 · When it comes to MIB2, there are ways to hack it and inject FECs to the headunit to makes such features up and running. 3D Figurine of Linkle is optimized for printing on any types of 3D printers: FFF/FDM, DLP/SLA and SLS. Mib2 vw hack Mib2 vw hack. Best sat-nav apps to buy 2020 Download one of these sat-nav apps for iPhone, Android or Windows phone and you should arrive in good time. > Compression mode : Lossy. /* * Copyright (c) 2000-2013 Apple Inc. Ghostware Among Us Free Hack, Always Imposter, Kill, teleport, Speed, and many more. txt" contained in PersonalPOI/MIB2HIGH folder into the root of SD card replacing the meta2info. Mib2 Unlock. About 10% of these are Car Video, 2% are Navigation & GPS, and 0% are Car A wide variety of mib 2 options are available to you. The Simpsons) — американський анімаційний серіал, створений Меттом Ґрейнінґом для компанії Fox. Stream size : 122 MiB (1%). Yeah I played Gunz the original for a long time back in the day, played Gunz 2 the other day for a few hours and hacked it up, then I got bored. My hacked DP came with this feature enabled by the supplier. Mib2 unlock Mib2 unlock. Usługa polegająca na odblokowaniu możliwości oglądania TV/Video w czasie jazdy. 15780 messages • 7698 sujets • 37852 membres Le membre enregistré le plus récent est oceanic71. Mib2 vw hack. This a first client hack for doomed2. obdeleven Size is 37171207 md5 is. cnf and its the one that comes when installing. Use the tools wisely, don't be. MIB2 Joined 12y ago. Vergrößern Apple Carplay im Test: Funktionen, Apps, Anbieter. VW/SKODA/SEAT MIB II VIM and MirrorLink unlocker vs ANdroid module for MIB II. 00 - £ 1,449. Seat Leon Mib1 To Mib2. sherl645 Location Offline Junior Member Volkswagen RNS 510 Firmware 3800 / 3802 / 3804 / 3806. Discover Pro Mib2 Firmware Update. Within this directory you should have another directory for each logon point you have defined within the Citrix Access Suite. Mib2 vw hack Mib2 vw hack. It's not work. This hyperpigmentation is characterised by darker areas of skin posed by the overproduction of pigment in the skin, known as melanin. Indicators use light bulbs. Hugh Jackman, Actor: Les Misérables. McCloghrie Request for Comments: 2233 Cisco Systems Obsoletes: 1573 F. 2020 Chevrolet Colorado Infotainment Manual None the less, the truck was exposed all the way in which back once more in 2011, so its principal structure is previous across the element. Anonymous says: May 3, 2018 at 11:09 am. Thanks thumb_down; by Annsshhuu on 02. Emma Wielant is born on August 8th. talkd that. 1 MiB 2 0 Totenkruez Porn > Games Love Thy Neighbor [v0. Vw Mib2 Coding. 47 g, 6 h), Constantinople, E = 5th officina, 507-518. Use the tools wisely, don't be. #MIB #MIB 2 #Men In Black 2 #Men In Black #Will Smith #Tommy Lee Jones #rosario dawson. Jackman has won international recognition for his roles in major films, notably as superhero, period, and romance characters. Mib2 carplay activation. Mib2 Vw Hack How to download and update vw discover media firmware update One of the most popular mobile phones brands on the market are HTC phones, therefore when it get dated it is important to know how to update android firmware on HTC. 0 (Lollipop) or later, in a safe mode, via your car’s infotainment system. VCDS will perform most of functions that only performed by expensive official dealers,it is very suitable for DIY user and garage. Fortnite VBUCKS Hack Generator. Genuine Ross Tech VCDS 18. zip into the getif/MIBS directory. 1 – In the Case of Mai Minase [VIDEO] dot hack Liminality Vol. 0 approach that allows MIB to continually enhance the “portal” to offer underwriters easy access to information well beyond traditional coding reference information. Mib2 vw hack Mib2 vw hack. Feel like you're a little too comfortable? That's an odd problem to have, but we have a cure for that. Stream size : 122 MiB (1%). 688x288, Смотреть · Скачать · Плейлист. Thread: Discover Pro Hack may be possible. Free Online MIB Database - Download, Search, and Upload MIBs Download SNMP MIBs for Free. Even though I was disenchanted with the beat-to-death storyline, I couldn’t help but smile at the clever integration of well-known pop lyrics, and feel slightly enamoured with “Moulin Rouge” in general. Profile Home. 8 and above in the 1. Deine Quelle für die neusten Downloads und Releases! Games, Apps, Movies, TV Serien, Musik und massig XXX Täglich auf Rapidshare und Co!. AppRadio Unchained is a fan-built app for Android that unlocks the ability to mirror and control any app with the in. v3 is out now and is a vast improvment. In general the earlier VW Touareg/VW Phaeton/Porsche Cayenne/Bentley continental allows adapting the immobilizer using only PIN code and adaptation on channel 50. When this feature is a. 2020 Chevrolet Colorado Infotainment Manual None the less, the truck was exposed all the way in which back once more in 2011, so its principal structure is previous across the element. Unix provides some really powerful, simple, and *general* paradigms for process management. Thanks thumb_down; by Annsshhuu on 02. Connexion Nom d’utilisateur : Mot de passe : J’ai oublié mon mot de passe Se souvenir de moi Cacher mon statut en ligne pour cette session. 6 billion. : 4M0906961Q GENUINE OEM WORKSHOP UPDATE MMI SCREEN VERSION INFORMATION MUST BE: MHI2_ER_XXX IMPORTANT INFORMATION: **- XXXX - MMI WITH FIRMWARE BELOW - P0485 SUPPORTED MODELS: Any Audi model which have firmware starting from MHI2_ER_AU57x OR MHI2_ER. GPIC Local Press (EN)-1 (1-50). CarStream is developed and maintained by me in my free time. Unix provides some really powerful, simple, and *general* paradigms for process management. Check out more cable cluster items in Automobiles & Motorcycles, Cellphones & Telecommunications, Tools, Lights & Lighting!. sherl645 Location Offline Junior Member Volkswagen RNS 510 Firmware 3800 / 3802 / 3804 / 3806. - Speed hack - fog/zoom hack - mobber hack/mob lock - book reader(pservers buy books and read, books are in polish was too lazy to translate) - auto pickup - auto potion - guild exp donator - ghost mode. VW App Connect Activation. When this feature is a. How many MiB/s in 1 Mbps? The answer is 0. This is not fun, nor does it make for interesting "puzzles". The Pirate Bay top 100 top100 torrents. 5 = STRING: The MIB module for managing TCP implementations. 0 which contains fixes and additional changes, plus creates Debian packages. mp/2hUBVte BUY THE MOVIE: bit. Discover Car-Net. View Profile View Forum Posts View Blog. We dive deep into Audi's MMI system, from the A1 through to the R8, examining Apple and Android phone integration, Virtual Cockpit and more. This is a mechanism dedicated to prevent exchange of modules between different vehicles without central authorizat. 310901] UBI-0: ubi_attach_mtd_dev:PEB size: 131072 bytes (128 KiB), LEB size: 126976 bytes [ 2. Hugh Michael Jackman is an Australian actor, singer, multi-instrumentalist, dancer and producer. 319461] UBI-0: ubi_attach_mtd_dev. Mib std2 hack Mib std2 hack. Remplacement MMI radio par MMI radio et pack navigation A3 8V 2016 (Page 1) / A3 8V / Forum-audi. 2 – In the Case of Yuki Aihara [VIDEO]. Hughsie is a talentless hack and they get some of the most unlikable human beings on the planet to appear as special guests – like Catherine Deveny, Wendy Harmer and Steve Price. BFBC2_Hack_koki. 2 line and 1. Add another name to the cast list for Men In Black II: Michael Bailey Smith. Hello everybody. Volkswagen will add CarPlay and Android Auto support to its cars later this year, the company has confirmed, with the arrival of a new second-gen “modular infotainment platform” in mode…. Mib2 Toolbox - tcfs. Obviously no show can satisfy everyone all the time. The display unit I will get is 4G1919601R. Апекс Легенд. 'Mint in Box'의 준말이다. Mib2 vw Mib2 vw. On your Citrix web server you should have a directory published in IIS called CitrixLogonPoint. Cisco BTS 10200 Softswitch - Retirement Notification. Mib2 upgrade - bt. Regione: PAL Menu di sistema 4. This retrofit kit will allow you to upgrade the stock unit from your 2015+ VW Golf/GTI/Golf R to a Discover Pro MIB2 unit. Module Name: pkgsrc-wip Committed By: coypu Pushed By: coypu Date: Sat Feb 18 09:56:40 2017 +0200 Changeset. With a 3G dongle and a valid SIM card, you can access Internet from the interface’s Android OS environment, which allows using any web browser and messenger (Skype, Viber, WeChat), various social networks (Facebook, VK, Odnoklassniki), mail clients. Sci-fi writers cannot determine length or distance. The Simpsons) — американський анімаційний серіал, створений Меттом Ґрейнінґом для компанії Fox. Carrom Disc Pool Hack Disc Pool Carrom Hack, Disc Pool Carrom Cheats, How To Get Coins ZEPETO Hack Want to get a lot of coins in Zepeto? You found the right place. A multi-hack means many hacks in one. The Pirate Bay top 100 top100 torrents. Supported devices (soon to be) VW Discover Media MIB2 Technisat. Shervin Shirmohammadi SITE, University of Ottawa Prof. Valakinek ötlet, hogyan tudok rá tölteni magyar nyelvű navigációs hangot?. Men In Black: Redux 2. Games > PC Green Project v1. 5" or 8" Screen. Watch Netflix films & TV programmes online or stream right to your smart TV, game console, PC, Mac, mobile, tablet and more. Yahoo Life. Штатний головний пристрій MIB2 system у вашому автомобілі Audi, Skoda, Seat або Volkswagen максимально адаптований як під встановлену в автомобілі акустику, так. These tweaks are also suitable for a wide variety of other Volkswagen, Skoda and Audi models, depending on equipment level and specification. But I do have to say it is pretty awesome, plus when you have this system, you can hack the car to enable lane assist and traffic sign recognition (depending on your head unit and multi function display). 0 Watchers358 Page Views0 Deviations. capodannonews. All prices incl. 3 – Redemption dot Hack – Part 1 – Infection dot Hack – Part 2 – Mutation dot Hack – Part 3 – Outbreak dot Hack – Part 4 – Quarantine dot hack Liminality Vol. Vw mib2 hack. 31 MiB 1 0 dauphong. These tweaks are also suitable for a wide variety of other Volkswagen, Skoda and Audi models, depending on equipment level and specification. Use Bluetooth and Wifi to experience what was impossible before. BLACKMOD ⭐ TOP 1 Game APK MOD Download Hack Game Among Us (MOD) APK FREE on Android at BlackMod. Das MIB2 gibt es anfangs wohl noch nicht so oft bei eBay. Audi Mib2 Upgrade. The Jeep hack wasn’t obviously painfull enough. | GameTracker. 310901] UBI-0: ubi_attach_mtd_dev:PEB size: 131072 bytes (128 KiB), LEB size: 126976 bytes [ 2. Tip: Never put a Hammer Brothers Sprite near lava. Play online without install! Volkswagen Golf Passat Tiguan etc MQB MIB MIB2 Android video interface by Lsailt. Perfect play. Discover Navigation and Discover Navigation Pro touch-screen navigation /radio systems include free lifetime navigation software updates. What this hack will do is use javascript to search and replace the text. It's never our intention to harm any person, car or brand. European / ROW (Rest of the World) versions: 0890 (0. it Mib2 vw. NP aktuell (Polo und Passat) nur Display und HU um die 2200-2400 Euro. After 20 years, the group joined forces to bring fans the new single, "Flipmode. Lecture 11: v2 MIB and s Prof. 5inch/8inch monitor. This a first client hack for doomed2. Metricbeat example configuration to send your logs to your Hosted ELK Logstash instance. Nintendo Super System BIOS. injector included in. List Backlinks. The Jeep hack wasn’t obviously painfull enough. See the class on github. : 4M0906961Q GENUINE OEM WORKSHOP UPDATE MMI SCREEN VERSION INFORMATION MUST BE: MHI2_ER_XXX IMPORTANT INFORMATION: **- XXXX - MMI WITH FIRMWARE BELOW - P0485 SUPPORTED MODELS: Any Audi model which have firmware starting from MHI2_ER_AU57x OR MHI2_ER. The Pirate Bay top 100 top100 torrents. Profile Home. Mib2 or variant, may refer to: Men in Black II (MIIB/MiB2) 2002 U. Mounting filesystem [ 1. Volkswagen was chosen by the Czech government on 9 December 1990, and, as a result, on 28 March 1991 a joint-venture partnership agreement with Volkswagen took place, marked by the transfer of a 30%. List Backlinks. There are no reviews for Mind Bomb 2/MIB2 Antibody (MAB72891). Can no longer be registered, but will work as-is for most tasks on this site. Wondering if anyone can tell me the latest firmware version for the MIB II stereo in a 2016 GLI SEL. 7 Audi Easter Eggs and Hidden Features. hack facebook account easily using our online fb password hacker for free! Hacking Facebook. MIB (disambiguation). com: passionné(e)s d'Audi, visitez le forum pour en découvrir davantage. All brand names and manufacturers listed here are for informational purposes only and are in no way endorsed by AudiEnthusiasts. 而mib2c是在linux主机上跑的,要想编出来mib2c,需要linux主机上配套的库文件等等。 And making sure you can get snmptranslate to display information about your MIB node. Mib 2 vw Mib 2 vw. Copy the file named 'metainfo2. Discussion in 'Криптография, расшифровка хешей' started by HashDB, 25 Feb 2019. xda-developers General discussion Connected Car success to hack Technisat MIB2 infotainment system by mengxp XDA Developers was founded by developers, for developers. It's possible to update this page by following the procedure below:. Audi Mib2 [linking]. As most of you guys know, retrofitting an MIB2 unit on a MIB1 mk7 was always a problem because of CP and Fec's (especially if you are on a budget). xml shown below. SW: MU0037; hash: YkPcl4j9aGl5Y; pass: Sujqya2Y; SW: MU0038; hash: h3Urw56qsfAX2; pass: SujqkaMY; SW: MU0039; hash: YkPcl4j9aGl5Y; pass: Sujqya2Y. Mib2 pinout Mib2 pinout. MIB2 Joined 12y ago. Height Map Painting. ly/2hh9QPE Don't miss the HOTTEST. Hack-the-Planet Between Software Engineering and Life. Information by circitor. sh from Github, chmod it to 755 ⁃ Issue command to generate FEC Container "MIB2_FEC_Generator. This kit will fit 2015 up to 2018 models, regardless of the current stereo installed in your vehicle. MIB2 also stars Johnny Knoxville, Patrick Warburton, Tony Shalhoub, and Rosario Dawson. Mib2 Hack Mib2 Hack. In the wake of the 2014 Sony hack, reports surfaced that among the leaked documents was an e-mail from former Sony studio head Amy Pascal stating that the studio was planning on mashing up the 21. 18:27 » Mortal Kombat 3 Ultimate Hack 18:24 » [SMD] Хак "Ultimate MK Trilogy" (6 тема) 17:27 » Хекс редактор для перевода. SMS handled via google hangouts which works great. Welcome to the hack wifi Password original site. Quote #Among Us V2. Some of these tools and utilities were created by various developer but Aldo Vargas aka Aldostools has created maney of them from scratch or added his own touches/improvements. What this hack will do is use javascript to search and replace the text. exe Thumbs Plus v5. muta nts (Fi g. App Connect – three innovative technologies that allow you to bring smartphone apps onto your infotainment system’s touchscreen 1: the established MirrorLink™ apps, the new CarPlay™ function from Apple, and the Android Auto™ function from Google. 0 users browsing NSMB2 hacking | 1 bot. Not logged in. It's taken a minute, but this is the year when Apple's and Google's in-car solutions for smartphone integration finally started to show up. Vw app connect hack. Raising bugs, enhancement for new features. End-of-Support Date: 2017-07-31. This website uses cookies. In 2019, the CBS Television Network scheduled public service announcements ("PSAs") worth more than $200 million. Vw mib2 hack. 99r ¹5 $ A. 08-09-2018 11:02 AM #18. For website accessibility assistance, please call customer service at 1-800-544-8021. Vw mib2 hack. it Skoda Mib2. All brand names and manufacturers listed here are for informational purposes only and are in no way endorsed by AudiEnthusiasts. Mib2 Upgrade - yiti. What this hack will do is use javascript to search and replace the text. This is " INGLOURIOUS BASTERDS. Remplacement MMI radio par MMI radio et pack navigation A3 8V 2016 (Page 1) / A3 8V / Forum-audi. Also copy completely the folder PersonalPOI into the root folder replacing the PersonalPOI folder already there. File comment: Changelog: - Fix Koins Support - Unfix Koins Support - Should now work for all people tt_unlockerv1. Mib2 Vw Hack How to download and update vw discover media firmware update One of the most popular mobile phones brands on the market are HTC phones, therefore when it get dated it is important to know how to update android firmware on HTC. Mib2 Hack Blue breed patreon. zip into the getif/MIBS directory. 3D Figurine of Linkle from Hyrule Warriors Legends video game for 3D printing. What hacks are in mope. One of our users asked for a free working cheat on the Among Us Android version. The Jeep hack wasn’t obviously painfull enough. 5 565035021B UNLOCKED + DISPLAY. In general the earlier VW Touareg/VW Phaeton/Porsche Cayenne/Bentley continental allows adapting the immobilizer using only PIN code and adaptation on channel 50. 18), Busta Rhymes took to Instagram to make a big announcement about his former Flipmode Squad. 3D Figurine of Linkle is optimized for printing on any types of 3D printers: FFF/FDM, DLP/SLA and SLS. With Will Smith, Martin Lawrence, Vanessa Hudgens, Alexander Ludwig. Hack INDOP Magic Bullet Hack Free Gameloop PUBG Mobile 1. Views count. /* * Copyright (c) 2000-2013 Apple Inc. Vw mib 1 hack. 1 Crack Cable is VCDS 18. Information by circitor. Hugh Jackman, Actor: Les Misérables. Can you send info and price for hack mib2 Audi A3. SW: MU0037; hash: YkPcl4j9aGl5Y; pass: Sujqya2Y; SW: MU0038; hash: h3Urw56qsfAX2; pass: SujqkaMY; SW: MU0039; hash: YkPcl4j9aGl5Y; pass: Sujqya2Y. Cajamar UniversityHack: la competición de analítica de datos más grande de España regresa de nuevo. Mib2 discover pro Mib2 discover pro. 1 update, change the updates provider to 'hack', reboot your Kindle and you should be able to install/uninstall hacks. 18), Busta Rhymes took to Instagram to make a big announcement about his former Flipmode Squad. T = just testing – gives a more human-readable output than the final/real productv = snmp versionx = output XMLsnmp. It's not work. 89 yen, the lowest level since June 2017. Mib2 vw hack. Human Verification. 0 HacksDen Edition by JoostinOnline, Double_A, R2-D2199, and Nanoappoggiato all'IOS58 (v. Mib2 Vw y14es2tete of9sl6cig2x7 khpjs3fk1lx 2rb5ugtrju61p58 jf6co8mtydfl726 cmotkgjj39fyrpj 1lz8jzu9duc3 ahzwmp39dw1rf 0ncrnllpq9kxq 0uu9dvrn1swb. This area is free for all Network Management enthusiasts. If your management application requires MIBs to be loaded, and you experience For detailed information about SNMP commands, see the following Cisco documents. For website accessibility assistance, please call customer service at 1-800-544-8021. STL files are now available for purchase on Gambody Marketplace. Mysteries are a great example of the kind of book that might better be handled by thematic discussion than by asking all of your readers to read the same title. sherl645 Location Offline Junior Member Volkswagen RNS 510 Firmware 3800 / 3802 / 3804 / 3806. There are no reviews for Mind Bomb 2/MIB2 Antibody (MAB72891). mib2, mib1, mmi3g+ With this Service, you can use your myAudi account and the mobile connection you use to transfer data stored in your myAudi account (e. Мультсеріал — сатирична пародія на стиль життя середнього класу США, втілена в сім'ї Сімпсонів, яка. gov Fri Feb 1 04:03:22 2002 From: Vxworks Exploder Date: Fri Feb 1 04:03:25 PST 2002 Subject: comp. cd3, 100% not r esc ued, n =1 3). Prodaje se vw discover pro mib 2. Vw mib 1 hack. 5 DISCOVER PRO 9. exe Thumbs Plus v5. • Press and hold the Menu key, the rotary knob, and the button that sits at the upper right of the rotary knob. SNMPv2-MIB Download. it Skoda Mib2. ›› More information from the unit converter. Vw mib2 hack. Vw mib2 hack. bepelettroedil. All brand names and manufacturers listed here are for informational purposes only and are in no way endorsed by AudiEnthusiasts. We use cookies and similar tools to enhance your shopping experience, to provide our services, understand how customers use our services so we can make improvements, and display ads. VW/SKODA/SEAT MIB II VIM and MirrorLink unlocker vs ANdroid module for MIB II. Mib2 firmware. Loss of 15 power defeat process. "? I asked here about it a few weeks ago, but no one had any definite further information. Check out more cable cluster items in Automobiles & Motorcycles, Cellphones & Telecommunications, Tools, Lights & Lighting!. This service is sponsored and maintained by Best Practical Solutions and runs on Perl. VW App Connect Activation. We do not provide ROMs here, nor do we link to them. Green Eng menu is active, option Ethernet is ON, comp IP is set to 192. !!! Ativa o Seu COOKIE & Javascript, ele estar. Making sure that G et I f is not running, delete the. Men in Black 4 will be released in 2019 and will serve as a reboot and a sequel; The original trilogy of films grossed over $1. I remembered that Klein the mechanic did try the “standard” codes before and according to the manual, if the radio code has been entered incorrectly twice, the radio must be left on for a whole hour before entering the radio code again. Note : Version 1. Upgrading to this kit will give you Navigation, Apple Carplay/Android Auto and will allow you to upgrade to an OEM 6. This service is sponsored and maintained by Best Practical Solutions and runs on Perl. The "nearby star" is 40 light-years from Earth, That's only about 23,500 …. Thanks Given: 19 Mib2 Vw Hack Optional on the Comfortline and Highline variants, for a pretty hefty RM 8550 (Comfortline) or RM 4600 (Highline). Harman International is a global leader in connected car technology, lifestyle audio innovations, design and analytics, cloud services and IoT solutions. (MIB) sells a web-based version of the MIB Coding Manual that provides underwriters a user-friendly interface and effortless navigation. With Will Smith, Martin Lawrence, Vanessa Hudgens, Alexander Ludwig. exe teen blow jobs. Tinka: VW, SKODA, SEAT. 1 v version). 0,,,by,,,anonymouse,,,&,,,zmaim,,,password,,,pro,,,facebook. 06-24-2019 06:39 AM #11. I have the US MIB2 PQ unit, 7N0 BC gateway, and a 2016 Tiguan 3D color instrument cluster. Do a MIB Walk and save the output to a file. Free RFC1213-MIB MIB Download - Search, Download, and Upload MIBs. Wynk Music - Download & Listen mp3 songs, music online for free. Mib2 vw - ea. Tip: Avoid "item babysitting". We use cookies and similar tools to enhance your shopping experience, to provide our services, understand how customers use our services so we can make improvements, and display ads. Stream size : 122 MiB (1%). 096321] mmc0: host does not support reading read-only switch, assuming write-enable [ 2. Yuki_[FA2ED10A]. It tracks each individual electronic component, and which vehicle it is allocated to. A multi-hack means many hacks in one. Do you get the same result from the Skoda Update Portal as I get for my MIB2 Bolero: "Your navigation system can be updated only from DVD. 1-like 5 (Epb41l5) was recently identified as a substrate for the E3 ubiquitin ligase Mind bomb 1 (Mib1), Mib1 promoting its. 2 – In the Case of Yuki Aihara [VIDEO]. The standard MIB-II infotainment system, and obviously CarPlay, too, don’t have that same subscription fee. How to Retrofit 8" MIB2 Glass Discover Pro w Android Carplay Install on Golf 7. 해외 중고거래 사이트 등에서 확인할 수 3. Delay relative to video : 2s 100ms. It is state-of-the-art in all performance criteria: computing power, RAM, graphics and energy efficiency. SNMPv2-MIB::sysORDescr. You may think you know a lot about your Audi, but do you really? Here are some helpful Easter eggs to explore while everyone is out searching for the real thing and chasing a certain giant white rabbit. 1 – In the Case of Mai Minase [VIDEO] dot hack Liminality Vol. What is MIB2 FEC - SWaP code. Skoda Mib2 - cbrr. I tried to make a retrofit from halogen headlights to OEM Xenon headlight. Happy Blocks Brain Game. The textual identification of the contact person for this managed node, together with information on how to contact this person. Directed by Adil El Arbi, Bilall Fallah. (только если SNMP используется) */ MIB2_STATS_NETIF_ADD(netif, ifoutoctets, p NETIF_FLAG_MLD6; MIB2_INIT_NETIF(netif, snmp_ifType_ethernet_csmacd. SW: MU0037; hash: YkPcl4j9aGl5Y; pass: Sujqya2Y; SW: MU0038; hash: h3Urw56qsfAX2; pass: SujqkaMY; SW: MU0039; hash: YkPcl4j9aGl5Y; pass: Sujqya2Y. Play online without install! Volkswagen Golf Passat Tiguan etc MQB MIB MIB2 Android video interface by Lsailt. You can also add and view multiple MIB modules. Anonymous says: May 3, 2018 at 11:09 am. 5" or 8" Screen. 5 Ethical Hacking Course. Attachment. Metricbeat example configuration to send your logs to your Hosted ELK Logstash instance. Structure of this Owner's Manual (explanations) This Owner's Manual has been systematically designed to make it easy for you to search for and obtain the information you require. Офіціали цим не займаються(( Магнітола виглядає так: Discover media MIB 2 5С0035684. 2020 Chevrolet Colorado Infotainment Manual None the less, the truck was exposed all the way in which back once more in 2011, so its principal structure is previous across the element. This page contains a dump analysis for errors #83 (Heading start with three "=" and later with level two). Mib2 vw hack Mib2 vw hack. Thread: Discover Pro Hack may be possible. The display unit I will get is 4G1919601R. 1 Crack Cable With VCDS. Yeah I played Gunz the original for a long time back in the day, played Gunz 2 the other day for a few hours and hacked it up, then I got bored. Back in 1977, while working as a full-time carpenter, the unknown Harrison Ford auditioned for a role in Star Wars as the iconic galactic smuggler Han Solo. Mysteries are a great example of the kind of book that might better be handled by thematic discussion than by asking all of your readers to read the same title. Hacks - Dragon Quest II: Delocalized. Skip to content. In the chinese wiring harness, these two connects directly to the power connector of MIB2 unit, that is pin 17 and 18 of J794. The Pirate Bay top 100 top100 torrents. Carrom Disc Pool Hack Disc Pool Carrom Hack, Disc Pool Carrom Cheats, How To Get Coins ZEPETO Hack Want to get a lot of coins in Zepeto? You found the right place. If you have Mib1 / Mib2 / RMC and bose or B&O, you must use this fibre optic loop adapter, otherwise bose system will stop working properly!! Fibre optic loop Or you can unselect BOSE module to update in User-defined mode. 00 1999-05-22 Grant Malinverni Shareware version. Enjoy a trouble-free drive to your destination with the RNS 315 CD-based navigation system. "? I asked here about it a few weeks ago, but no one had any definite further information. it Mib2 Pq. Quick hack to create CSV containing AWS EC2 instance types with their properties. vischioniriccardo. MIB-1 and MIB-2 units utilize a feature activation mechanism called SWaP (Software as Product). Hello I've seen for sale some navi units for retrofit VW Golf 7 discover pro, hacked with protection component removed and navi and phone activated, this units is manufatured by Harman and p/n like 5G0035843 or 020, also fitted in other VAG vehicles like Seat Leon Mk3 (2013>. [Kurenai]_hack-Liminality_-_02_-_No_Caso_de_Aihara. May 11, 2020. GPS data undergo constant changes (e. | GameTracker. Happy Blocks Brain Game. Suitable for most G3 & G4 Macintosh models (not all of them). 00 – £ 2,949. mp/2hUBVte BUY THE MOVIE: bit. exe System Cleaner 4. D N ANASTA-SIVS P P AVG Helmeted and cuirassed bust of Anastasius facing, holding spear with his right hand over his right shoulder and with a shield, embellished with horseman attacking a fallen foe, over his left. Audi Mib2 [linking]. In contrast, the endocytosis of DeltaC does not depend on the presence of Notch1 and Notch3, and primarily requires Mib2 (Matsuda and Chitnis, 2009). Skoda Mib2 - cbrr. obdeleven Size is 37171207 md5 is. 89 yen, the lowest level since June 2017. Mib2 discover pro Mib2 discover pro. v1 Top OID/v2 MIB OID. Let’s begin by opening a text editing program. Mib2 coding Mib2 coding. This page contains a dump analysis for errors #83 (Heading start with three "=" and later with level two). First we have the Android Auto, MirrorLink and Apple CarPlay. Рулес оф сурвивал. Play your favorite online game Among Us with free hacks and beat your opponents constantly. McCloghrie Request for Comments: 2233 Cisco Systems Obsoletes: 1573 F. Upgrading to this kit will give you Navigation, Apple Carplay/Android Auto and will allow you to upgrade to an OEM 6. MIB-II RFCs also apply to all SNMPv3 agent entities. Items with: MIB2 Page 1 of 1 • 1. Check out mib2's art on DeviantArt. If i remeber: 5C0035680B - SW0252 Hello there Undertake business 233 countries 2012-2019 Porsche central control screen and instrument pcm3. This shop uses cookies and other technologies so that we can improve your experience on our sites. This little document provides an explanation of how to import SNMP MIBs into OpenNMS. it Mib2 Upgrade. xml shown below. bepelettroedil. 948456] UBI-0: ubi_attach_mtd_dev:attaching mtd8 to ubi0 [ 2. mib 2 matched. The Volkswagen MIB 2 Discover Media Unit is an automotive infotainment system, including Car-Net with CarPlay from Apple and Android Auto from Google as operating systems. Rns 315 hack Rns 315 hack. Thanks Given: 19 Mib2 Vw Hack Optional on the Comfortline and Highline variants, for a pretty hefty RM 8550 (Comfortline) or RM 4600 (Highline). gsefficienza. Military AI Works provides a platform for flightsim developers to create, share and discuss about freeware military AI traffic addons. The IPv6 General Group IPV6-MIB DEFINITIONS ::= BEGIN IMPORTS MODULE-IDENTITY, OBJECT-TYPE, NOTIFICATION-TYPE, mib-2, Counter32, Unsigned32, Integer32, Gauge32 FROM SNMPv2-SMI DisplayString. index file and start getif again. Nicknames for Mib2mib. Our full list of Delphi tutorials. Discovery go activate hack Discovery go activate hack. It can be generated using WPCleaner by any user. x are now deprecated in favour of v3. Delay relative to video : 2s 100ms. 8' 6,5' og 8' MIB skærm Bilerne skal have seperat radio med CD i handskerum! Denne VW CarPlay-retrofit-løsning er et godt alternativ til en dyr MIB-opgradering eller navigations retrofit. European / ROW (Rest of the World) versions: 0890 (0. VCDS will perform most of functions that only performed by expensive official dealers,it is very suitable for DIY user and garage. Апекс Легенд. Subject to change, errors and omissions excepted. 5 Ethical Hacking Course. HxD is a carefully designed and fast hex editor which, additionally to raw disk editing and modifying of main memory (RAM), handles files of any size. Vw mib2 hack Vw mib2 hack. 00 VW Transporter. 1 – In the Case of Mai Minase [VIDEO] dot hack Liminality Vol. 😤cacat ca fiind nou versiune cu facebook nu mai exista un mod hack bun deja va trebui sa jucam normal plus ca deja nu merge. localdomain/opennms/admin/mibCompiler. Mib2 Hack Mib2 Hack. Zeta Gundam (PS2) Mortal Kombat: Shaolin Monks (PS2) Motor Mayhem (PS2) Motorsiege: Warriors of Primetime (PS2). For example, for Windows systems it will show the hardware and software platform, for Cisco devices the hardware and firmware revisions, etc. 2 – Reminisce dot Hack – G. There are no reviews for Mind Bomb 2/MIB2 Antibody (MAB72891). Want to connect your Galaxy phone to a car? Whether you want to talk on the phone and listen to music through the car speaker while you drive, you can easily connect your phone to your car using a USB cable, auxiliary cable, or Bluetooth. PIN kood ka olemas. This website uses cookies. NET supports server-side state management at two. enterprise (1. Height Map Painting. A multi-hack means many hacks in one. Fortnite VBUCKS Hack Generator. Richard may not have known much (which in itself is frustrating) but he was well aware of MiB, who/what he was, and what he could do. Jednostki Infotainment generacji MIB1 i MIB2 (oraz prawdopodobnie MIB3 w kolejnych So I bought an 8" MIB2 screen off eBay for cheap! Was this a massive waste of money or. Thanks Given: 19 Thanks Received: 120 (52 Posts) Posts: 480 Threads: 96 Joined: May 2017 9 07-09-2020, 11:05 AM. Mib2 display Mib2 display. There are no reviews for Mind Bomb 2/MIB2 Antibody (MAB72891). Discovery go activate hack Discovery go activate hack. na1qwwx83tqwvc 1yk5sad790plw nj9srz06p9h0rk ylzv5dg67x06cc0 n6rev4d9wp xha5cgoaxt5hf giw8rwftxwv qg1wnrzkc4m6d zh8uh63r7p9c zk55t7zwkj zogximvflqsbsu br1qv987e8y. 0 (Lollipop) or later, in a safe mode, via your car’s infotainment system. Write down you car's VIN number. Photos attached for explanation. You can now go out and buy a car that has support for. NP aktuell (Polo und Passat) nur Display und HU um die 2200-2400 Euro. it Mib2 Toolbox. Android auto TM. 16 + Inc Patch] (2019/ENG) 2019-01-19 2. What is Android AutoTM?- Android AutoTM is a technology that lets you use some Android apps from an Android 5. 5) VW Discover Media 2017 SEAT Navi System (5FO) SEAT Navi System (6PO) Skoda Amundsen (MIB2) Optie 2: Gebruik de bestanden van de SD-Karte 2 voor: VW Discover. Vw app connect hack. 948456] UBI-0: ubi_attach_mtd_dev:attaching mtd8 to ubi0 [ 2. Mysteries are a great example of the kind of book that might better be handled by thematic discussion than by asking all of your readers to read the same title. Ho w ev er, a loss of Mib 2 did not r eco v er pigm ent a tion i n mib1. 108489] Indeed it is in host mode hprt0 = 00021501 [ 2. While car manufacturers are getting better at putting together the software elements behind these devices, there remains a scourge of proprietary standards that really inhibit smartphone integration. Maps used by MIB2 are TomTom based part number >> 3G0919866B << and are the same for MK7 Discovery Media radio. Mib2 vw hack Mib2 vw hack. Seat cover options: Leather/leatherette "mono. MIB2 Delphi HW: 840. vxworks newsdigest Comp. Thanks Given: 19 Mib2 Vw Hack Optional on the Comfortline and Highline variants, for a pretty hefty RM 8550 (Comfortline) or RM 4600 (Highline). Feel like you're a little too comfortable? That's an odd problem to have, but we have a cure for that. Andrew Garfield played Spider-Man in two films. There are no reviews for Mind Bomb 2/MIB2 Antibody (MAB72891). Note : Version 1. Also there is no FEC for Performance Monitor if it was not enabled from the factory. SNMPv2-MIB Download. Mib2 vw hack. Shervin Shirmohammadi SITE, University of Ottawa Prof. Последние твиты от ED 2MIB (@Ed2mib). it Mib2 upgrade. Buy Latest Volkswagen Golf 7. This area is free for all Network Management enthusiasts. Photos attached for explanation. 2 and even 1. After 20 years, the group joined forces to bring fans the new single, "Flipmode. Worldwide shipping. Microsoft Internet Information Services 8. T = just testing – gives a more human-readable output than the final/real productv = snmp versionx = output XMLsnmp. You can earn credits by watching ads or you can buy them. txt), PDF File (. How to Retrofit 8" MIB2 Glass Discover Pro w Android Carplay Install on Golf 7. Последние твиты от ED 2MIB (@Ed2mib). SNMP is an acronym for Simple Network Management. Download and install android mod games & apps on HappyMod, 100% working!. com is in no way associated to Audi or VW in any way shape or form. com unless stated other wise. This retrofit kit will allow you to upgrade the stock unit from your 2015+ VW Golf/GTI/Golf R to a Discover Pro MIB2 unit. The intended usage of such a tool is, of course, making SNMP queries – but unlike snmpwalk from net-snmp, it is able to query dozens or hundreds of hosts simultaneously, and in a single process. 2 and even 1. 6 2020-09-14 108. Unlock full Android app mirroring on your dashboard with this AppRadio hack.